OFFICIAL 2015/2016 Batsu Discussion - Detective Agency

罰ゲーム
Perhaps the best known Gaki no Tsukai episodes are those dealing with batsu games, or punishment games, in which one or more of the cast members are subjected to after losing bets, major competition, or physical challenges
148 posts
furransu wrote:
Uploading 720p, CMs cut.


THANKS :* :* :*
refresh where? here or nyaa? i refreshed at both locations and dont see anything up yet... would love to watch this as i countdown to new years in new york.
that video is nice and clear its a perfect fit for some crispy subs lol

but it still want the version with the CMs I need the authentic televised experience. :geek:
Where is the link or am I too drunk to see it? :D
haha same here...just waiting for that mpeg-2/ts quality... been refreshing some private trackers and nyaa for a while now...
-_-
I'm sorry, but did I miss something? Did someone post a link somewhere for a 720p CM cut version? I dont see it in this thread. Maybe my excitement to watch is blinding me? :P
This is the media info for the torrent posted on the previous page:

General
Complete name : H:\ダウンタウンのガキの使いやあらへんで!!絶対に笑ってはいけない名探偵24時 (1280x720 x264-AAC).mp4
Format : MPEG-4
Format profile : Base Media / Version 2
Codec ID : mp42
File size : 4.34 GiB
Duration : 4h 52mn
Overall bit rate mode : Variable
Overall bit rate : 2 124 Kbps
Writing application : TMPGEnc Video Mastering Works 5 Version. 5.1.0.46

Video
ID : 2
Format : AVC
Format/Info : Advanced Video Codec
Format profile : High@L4.2
Format settings, CABAC : Yes
Format settings, ReFrames : 4 frames
Codec ID : avc1
Codec ID/Info : Advanced Video Coding
Duration : 4h 52mn
Source duration : 4h 52mn
Source_Duration_LastFrame : 67ms
Bit rate mode : Variable
Bit rate : 1 871 Kbps
Maximum bit rate : 8 000 Kbps
Width : 1 280 pixels
Height : 720 pixels
Display aspect ratio : 16:9
Frame rate mode : Constant
Frame rate : 29.970 fps
Color space : YUV
Chroma subsampling : 4:2:0
Bit depth : 8 bits
Scan type : Progressive
Bits/(Pixel*Frame) : 0.068
Stream size : 3.82 GiB (88%)
Source stream size : 4.01 GiB (92%)

Audio
ID : 1
Format : AAC
Format/Info : Advanced Audio Codec
Format profile : LC
Codec ID : 40
Duration : 4h 52mn
Bit rate mode : Variable
Bit rate : 160 Kbps
Maximum bit rate : 576 Kbps
Channel(s) : 2 channels
Channel positions : Front: L R
Sampling rate : 48.0 KHz
Compression mode : Lossy
Stream size : 335 MiB (8%)
TS ver is available on nyaa (41gb)
http://www.nyaa.se/?page=view&tid=770981

For subbers you can extract the Japanese sub using Caption2Ass
I really do hope people seed, I have noticed over the years some people grab and run and it is getting like this more and more every year.

Be nice people, at least seed back what you grabbed :)
Nakai really should've stayed for the whole batsu, that would've been a needed change from the usual.
I just hope the "official" rip picked for subbing is a good quality one. I don't remember exactly now, but I think 1080p versions of Earth Defense Force ones weren't all that good so I'm still holding to TS with hopes I'll one day stop being lazy bastard who only complains and do one myself :rofl:
I stayed through 80% of the game and I loved it!

This year's was definitely a bit different from past years, I think they did take more time to put a little more twist into running gags. From guests to setups, it was all good!!!

Thanks for the live streams at gaki! I remembered running from sherming's to anna's and back to vaughn.

Thanks again to all of you and may 2016 be a good new year for you!
furransu wrote:
720p for those interested. CMs cut.


Thank you so much. I saw the beginning and the end of Batsu 2015/2016. Was hilarious as always. :D
Maybe much better than last year, but i have to watch the whole Show.
Thx for seeding! :bow:
thanks furransu for the torrent!

Just some curious info. it was some gaki specials before the batsu:
three very short on 28th, 29th, and 30th with yamasaki, endo and tanaka answering some questions about the batsu. with spoilers.
and a very long one with the best of the previous batsus.
miomio links is what i have:

12/28 - Endo

12/29 - Yamasaki

12/30 - Tanaka

12/29 - best of
If anyone is having trouble seeing the attachment for the 720p MP4, here's a Mediafire upload of the torrent file (I guess more access, more potential seeders, though I'm gonna wait for 1080p myself). Many many thanks to furransu! :bow:

ダウンタウンのガキの使いやあらへんで!!絶対に笑ってはいけない名探偵24時 (1280x720 x264-AAC).mp4

sebas-chan wrote:
Just some curious info. it was some gaki specials before the batsu


Ooh thanks for sharing, couldn't resist watching the Housei one. :inlove:
148 posts