Gaki no Tsukai 1989-2013 [MEGA]

ダウンタウンのガキの使いやあらへんで!!
A Japanese variety show hosted by the popular Japanese owarai duo, Downtown
106 posts
Do you know the episode where Tanaka is pretending to be a kappa? Thanks a lot !
Johnhk wrote:
Do you know the episode where Tanaka is pretending to be a kappa? Thanks a lot !

Episode #902 (2008.05.04)
Image
:) :) :)
del
thank you :bow:
thank you :bow:
unos wrote:
added Gaki no Tsukai #SP (2014.12.31) - No-Laughing Prison Batsu Game 4.47Gb without commercials
Media Info
General
Complete name : F:\GnT\2014 (1186-1235)\Gaki no Tsukai #SP (2014.12.31) - No-Laughing Prison Batsu Game.mp4
Format : MPEG-4
Format profile : Base Media
Codec ID : isom
File size : 4.47 GiB
Duration : 4h 57mn
Overall bit rate : 2 153 Kbps
Writing application : Lavf54.63.104

Video
ID : 1
Format : AVC
Format/Info : Advanced Video Codec
Format profile : High@L3.1
Format settings, CABAC : Yes
Format settings, ReFrames : 4 frames
Codec ID : avc1
Codec ID/Info : Advanced Video Coding
Duration : 4h 57mn
Source duration : 4h 57mn
Bit rate : 1 948 Kbps
Width : 1 280 pixels
Height : 720 pixels
Display aspect ratio : 16:9
Original display aspect rat : 3.160
Frame rate mode : Constant
Frame rate : 29.970 fps
Color space : YUV
Chroma subsampling : 4:2:0
Bit depth : 8 bits
Scan type : Progressive
Bits/(Pixel*Frame) : 0.071
Stream size : 4.05 GiB (90%)
Source stream size : 4.05 GiB (90%)
Writing library : x264 core 123 r2189 35cf912
Encoding settings : cabac=1 / ref=3 / deblock=1:0:0 / analyse=0x3:0x133 / me=hex / subme=7 / psy=1 / psy_rd=1.00:0.00 / mixed_ref=1 / me_range=16 / chroma_me=1 / trellis=1 / 8x8dct=1 / cqm=0 / deadzone=21,11 / fast_pskip=1 / chroma_qp_offset=-2 / threads=18 / sliced_threads=0 / nr=0 / decimate=1 / interlaced=0 / bluray_compat=0 / constrained_intra=0 / bframes=3 / b_pyramid=2 / b_adapt=1 / b_bias=0 / direct=1 / weightb=1 / open_gop=0 / weightp=2 / keyint=250 / keyint_min=25 / scenecut=40 / intra_refresh=0 / rc_lookahead=40 / rc=crf / mbtree=1 / crf=25.0 / qcomp=0.60 / qpmin=10 / qpmax=51 / qpstep=4 / ip_ratio=1.40 / aq=1:1.00

Audio
ID : 2
Format : AAC
Format/Info : Advanced Audio Codec
Format profile : LC
Codec ID : 40
Duration : 4h 57mn
Bit rate mode : Constant
Bit rate : 192 Kbps
Channel(s) : 2 channels
Channel positions : Front: L R
Sampling rate : 48.0 KHz
Compression mode : Lossy
Stream size : 408 MiB (9%)
Language : unk

The Pixel Aspect Ratio Data of your MP4 file is wrong. :shake:

The correct Pixel Aspect Ratio is 1:1.

The Video Resolution of your MP4 file is 1280x720 (16:9).
The Pixel Aspect Ratio of your MP4 file is 16:9.

And therefore the Display Aspect Ratio of your MP4 file is...
16x16:9x9=256:81 about 3.16:1

And I recommend that you make file size less than 4GB for FAT32 file system. ;)
Image
Woah you know your stuff ErnieYoung, what software and settings do you use to encode your videos by the way if it's not too much trouble to ask? It's impressive how you can make the file size so low and still retain quality. :) I have videos I grabbed off a Korean file network that are ridiculously big in file size.
I always encode it by the default setting (CBR 4000 kbps) of the encoding tool (in the case of 1080i).
Image
ErnieYoung wrote:
I always encode it by the default setting (CBR 4000 kbps) of the encoding tool (in the case of 1080i).


But what software do you use to encode your videos?
Image

Kawaii~
Does anyone remember what was the episode where Hamada has to make commercials for NTV for 24 hours? I think it was part of a batsu where he lost.
Image

Kawaii~
VideogameDC wrote:
ErnieYoung wrote:
I always encode it by the default setting (CBR 4000 kbps) of the encoding tool (in the case of 1080i).


But what software do you use to encode your videos?

TMPGEnc Video Mastering Works 5
Image
Thanks Ernie for the information! :)

VideogameDC wrote:
Does anyone remember what was the episode where Hamada has to make commercials for NTV for 24 hours? I think it was part of a batsu where he lost.


I think it's these ones from the episode listing thread.
#460 - BATSU GAME - 24 hours Hamada business (1) - 25.04.1999
#461 - BATSU GAME - 24 hours Hamada business (2) - 02.05.1999

Old thread for the episode:
viewtopic.php?f=9&t=1160
ErnieYoung wrote:
The Pixel Aspect Ratio Data of your MP4 file is wrong. :shake:

The correct Pixel Aspect Ratio is 1:1.

The Video Resolution of your MP4 file is 1280x720 (16:9).
The Pixel Aspect Ratio of your MP4 file is 16:9.

And therefore the Display Aspect Ratio of your MP4 file is...
16x16:9x9=256:81 about 3.16:1

And I recommend that you make file size less than 4GB for FAT32 file system. ;)

oh..it's so bad? i want ask you about this, what software and settings do you use to encode, but...
i used Avidemux, just mistake with pixel aspect ratio. sorry
ErnieYoung wrote:
oh..it's so bad? i want ask you about this, what software and settings do you use to encode, but...
i used Avidemux, just mistake with pixel aspect ratio. sorry


Hope I don't sound like a douche but noone uses fat32 anymore, all the major non-windows OS systems support the more common NTFS so there should be no reason to be using fat32 unless your PC is from 2000.

The only time I usually see fat32 is on pen drives but hopefully people are smart enough to reformat it to ntfs.
106 posts

Who is online

In total there are 70 users online :: 1 registered, 0 hidden and 69 guests (based on users active over the past 30 minutes)
Most users ever online was 1241 on 13.06.2012, 07:37

Users browsing this forum: hoohking and 69 guests
leonie.lewis@boerse.site jairo.house@boerse.site kash.friedrich@boerse.site vera.moody@boerse.site payton.nolan@boerse.site draven.carr@boerse.site everly.bergmann@boerse.site madeline.walter@boerse.site melina.lucero@boerse.site kellan.flowers@boerse.site hugh.may@hochschule.tech waylon.escobar@hochschule.tech sven.weiss@hochschule.tech leia.joyce@hochschule.tech keagan.wiggins@hochschule.tech kaya.benson@hochschule.tech claudia.mays@hochschule.tech alana.herrmann@hochschule.tech rowen.meyer@hochschule.tech dominique.sparks@hochschule.tech alvin.case@elisabeth-krankenhaus.site blakely.norton@elisabeth-krankenhaus.site cash.ellis@elisabeth-krankenhaus.site erica.osborne@elisabeth-krankenhaus.site claudia.deleon@elisabeth-krankenhaus.site wilson.stuart@elisabeth-krankenhaus.site uriel.arias@elisabeth-krankenhaus.site benjamin.sosa@elisabeth-krankenhaus.site anton.acosta@elisabeth-krankenhaus.site rocco.ball@elisabeth-krankenhaus.site